  0
SECTION
  2
HEADER
  9
$ACADVER
  1
AC1014
  9
$ACADMAINTVER
 70
     9
  9
$DWGCODEPAGE
  3
ANSI_1252
  9
$INSBASE
 10
0.0
 20
0.0
 30
0.0
  9
$EXTMIN
 10
4.393841703391477
 20
4.005243254111746
 30
0.0
  9
$EXTMAX
 10
8.512847700522524
 20
8.095891177346473
 30
0.0
  9
$LIMMIN
 10
0.0
 20
0.0
  9
$LIMMAX
 10
12.0
 20
9.0
  9
$ORTHOMODE
 70
     0
  9
$REGENMODE
 70
     1
  9
$FILLMODE
 70
     1
  9
$QTEXTMODE
 70
     0
  9
$MIRRTEXT
 70
     1
  9
$DRAGMODE
 70
     2
  9
$LTSCALE
 40
1.0
  9
$OSMODE
 70
     0
  9
$ATTMODE
 70
     1
  9
$TEXTSIZE
 40
0.2
  9
$TRACEWID
 40
0.05
  9
$TEXTSTYLE
  7
STANDARD
  9
$CLAYER
  8
0
  9
$CELTYPE
  6
BYLAYER
  9
$CECOLOR
 62
   256
  9
$CELTSCALE
 40
1.0
  9
$DELOBJ
 70
     1
  9
$DISPSILH
 70
     0
  9
$DIMSCALE
 40
1.0
  9
$DIMASZ
 40
0.18
  9
$DIMEXO
 40
0.0625
  9
$DIMDLI
 40
0.38
  9
$DIMRND
 40
0.0
  9
$DIMDLE
 40
0.0
  9
$DIMEXE
 40
0.18
  9
$DIMTP
 40
0.0
  9
$DIMTM
 40
0.0
  9
$DIMTXT
 40
0.18
  9
$DIMCEN
 40
0.09
  9
$DIMTSZ
 40
0.0
  9
$DIMTOL
 70
     0
  9
$DIMLIM
 70
     0
  9
$DIMTIH
 70
     1
  9
$DIMTOH
 70
     1
  9
$DIMSE1
 70
     0
  9
$DIMSE2
 70
     0
  9
$DIMTAD
 70
     0
  9
$DIMZIN
 70
     0
  9
$DIMBLK
  1

  9
$DIMASO
 70
     1
  9
$DIMSHO
 70
     1
  9
$DIMPOST
  1

  9
$DIMAPOST
  1

  9
$DIMALT
 70
     0
  9
$DIMALTD
 70
     2
  9
$DIMALTF
 40
25.4
  9
$DIMLFAC
 40
1.0
  9
$DIMTOFL
 70
     0
  9
$DIMTVP
 40
0.0
  9
$DIMTIX
 70
     0
  9
$DIMSOXD
 70
     0
  9
$DIMSAH
 70
     0
  9
$DIMBLK1
  1

  9
$DIMBLK2
  1

  9
$DIMSTYLE
  2
STANDARD
  9
$DIMCLRD
 70
     0
  9
$DIMCLRE
 70
     0
  9
$DIMCLRT
 70
     0
  9
$DIMTFAC
 40
1.0
  9
$DIMGAP
 40
0.09
  9
$DIMJUST
 70
     0
  9
$DIMSD1
 70
     0
  9
$DIMSD2
 70
     0
  9
$DIMTOLJ
 70
     1
  9
$DIMTZIN
 70
     0
  9
$DIMALTZ
 70
     0
  9
$DIMALTTZ
 70
     0
  9
$DIMFIT
 70
     3
  9
$DIMUPT
 70
     0
  9
$DIMUNIT
 70
     2
  9
$DIMDEC
 70
     2
  9
$DIMTDEC
 70
     2
  9
$DIMALTU
 70
     2
  9
$DIMALTTD
 70
     2
  9
$DIMTXSTY
  7
STANDARD
  9
$DIMAUNIT
 70
     0
  9
$LUNITS
 70
     2
  9
$LUPREC
 70
     4
  9
$SKETCHINC
 40
0.1
  9
$FILLETRAD
 40
0.5
  9
$AUNITS
 70
     0
  9
$AUPREC
 70
     0
  9
$MENU
  1
.
  9
$ELEVATION
 40
0.0
  9
$PELEVATION
 40
0.0
  9
$THICKNESS
 40
0.0
  9
$LIMCHECK
 70
     0
  9
$BLIPMODE
 70
     0
  9
$CHAMFERA
 40
0.5
  9
$CHAMFERB
 40
0.5
  9
$CHAMFERC
 40
1.0
  9
$CHAMFERD
 40
0.0
  9
$SKPOLY
 70
     0
  9
$TDCREATE
 40
2452181.654637268
  9
$TDUPDATE
 40
2452643.335078472
  9
$TDINDWG
 40
0.0009910880
  9
$TDUSRTIMER
 40
0.0009910880
  9
$USRTIMER
 70
     1
  9
$ANGBASE
 50
0.0
  9
$ANGDIR
 70
     0
  9
$PDMODE
 70
     0
  9
$PDSIZE
 40
0.0
  9
$PLINEWID
 40
0.0
  9
$COORDS
 70
     1
  9
$SPLFRAME
 70
     0
  9
$SPLINETYPE
 70
     6
  9
$SPLINESEGS
 70
     8
  9
$ATTDIA
 70
     1
  9
$ATTREQ
 70
     1
  9
$HANDLING
 70
-16383
  9
$HANDSEED
  5
287
  9
$SURFTAB1
 70
     6
  9
$SURFTAB2
 70
     6
  9
$SURFTYPE
 70
     6
  9
$SURFU
 70
     6
  9
$SURFV
 70
     6
  9
$UCSNAME
  2

  9
$UCSORG
 10
0.0
 20
0.0
 30
0.0
  9
$UCSXDIR
 10
1.0
 20
0.0
 30
0.0
  9
$UCSYDIR
 10
0.0
 20
1.0
 30
0.0
  9
$PUCSNAME
  2

  9
$PUCSORG
 10
0.0
 20
0.0
 30
0.0
  9
$PUCSXDIR
 10
1.0
 20
0.0
 30
0.0
  9
$PUCSYDIR
 10
0.0
 20
1.0
 30
0.0
  9
$USERI1
 70
     0
  9
$USERI2
 70
     0
  9
$USERI3
 70
     0
  9
$USERI4
 70
     0
  9
$USERI5
 70
     0
  9
$USERR1
 40
0.0
  9
$USERR2
 40
0.0
  9
$USERR3
 40
0.0
  9
$USERR4
 40
0.0
  9
$USERR5
 40
0.0
  9
$WORLDVIEW
 70
     1
  9
$SHADEDGE
 70
     3
  9
$SHADEDIF
 70
    70
  9
$TILEMODE
 70
     1
  9
$MAXACTVP
 70
    64
  9
$PINSBASE
 10
0.0
 20
0.0
 30
0.0
  9
$PLIMCHECK
 70
     0
  9
$PEXTMIN
 10
1.000000000000000E+20
 20
1.000000000000000E+20
 30
1.000000000000000E+20
  9
$PEXTMAX
 10
-1.000000000000000E+20
 20
-1.000000000000000E+20
 30
-1.000000000000000E+20
  9
$PLIMMIN
 10
0.0
 20
0.0
  9
$PLIMMAX
 10
12.0
 20
9.0
  9
$UNITMODE
 70
     0
  9
$VISRETAIN
 70
     1
  9
$PLINEGEN
 70
     0
  9
$PSLTSCALE
 70
     1
  9
$TREEDEPTH
 70
  3020
  9
$PICKSTYLE
 70
     1
  9
$CMLSTYLE
  2
STANDARD
  9
$CMLJUST
 70
     0
  9
$CMLSCALE
 40
1.0
  9
$PROXYGRAPHICS
 70
     1
  9
$MEASUREMENT
 70
     0
  0
ENDSEC
  0
SECTION
  2
CLASSES
  0
CLASS
  1
ACDBDICTIONARYWDFLT
  2
AcDbDictionaryWithDefault
  3
AutoCAD 2000
 90
        0
280
     0
281
     0
  0
CLASS
  1
ACDBPLACEHOLDER
  2
AcDbPlaceHolder
  3
AutoCAD 2000
 90
        0
280
     0
281
     0
  0
CLASS
  1
LAYOUT
  2
AcDbLayout
  3
AutoCAD 2000
 90
        0
280
     0
281
     0
  0
CLASS
  1
LONG_TRANSACTION
  2
AcDbLongTransaction
  3
AutoCAD 2000
 90
        0
280
     0
281
     0
  0
CLASS
  1
LWPOLYLINE
  2
AcDbPolyline
  3
AutoCAD 2000
 90
        0
280
     0
281
     1
  0
CLASS
  1
HATCH
  2
AcDbHatch
  3
AutoCAD 2000
 90
        0
280
     0
281
     1
  0
CLASS
  1
XRECORD
  2
AcDbXrecord
  3
AutoCAD 2000
 90
        0
280
     0
281
     0
  0
ENDSEC
  0
SECTION
  2
TABLES
  0
TABLE
  2
VPORT
  5
8
330
0
100
AcDbSymbolTable
 70
     3
  0
VPORT
  5
260
330
8
100
AcDbSymbolTableRecord
100
AcDbViewportTableRecord
  2
*ACTIVE
 70
     0
 10
0.0
 20
0.0
 11
1.0
 21
1.0
 12
6.581321473842802
 22
5.283088231257247
 13
0.0
 23
0.0
 14
0.5
 24
0.5
 15
0.5
 25
0.5
 16
0.0
 26
0.0
 36
1.0
 17
0.0
 27
0.0
 37
0.0
 40
8.99999999580908
 41
1.462515883100381
 42
50.0
 43
0.0
 44
0.0
 50
0.0
 51
0.0
 71
     0
 72
   100
 73
     1
 74
     3
 75
     0
 76
     0
 77
     0
 78
     0
  0
ENDTAB
  0
TABLE
  2
LTYPE
  5
5
330
0
100
AcDbSymbolTable
 70
     1
  0
LTYPE
  5
14
330
5
100
AcDbSymbolTableRecord
100
AcDbLinetypeTableRecord
  2
BYBLOCK
 70
     0
  3

 72
    65
 73
     0
 40
0.0
  0
LTYPE
  5
15
330
5
100
AcDbSymbolTableRecord
100
AcDbLinetypeTableRecord
  2
BYLAYER
 70
     0
  3

 72
    65
 73
     0
 40
0.0
  0
LTYPE
  5
16
330
5
100
AcDbSymbolTableRecord
100
AcDbLinetypeTableRecord
  2
CONTINUOUS
 70
     0
  3
Solid line
 72
    65
 73
     0
 40
0.0
  0
ENDTAB
  0
TABLE
  2
LAYER
  5
2
330
0
100
AcDbSymbolTable
 70
     4
  0
LAYER
  5
10
330
2
100
AcDbSymbolTableRecord
100
AcDbLayerTableRecord
  2
0
 70
     0
 62
     7
  6
CONTINUOUS
  0
LAYER
  5
34
330
2
100
AcDbSymbolTableRecord
100
AcDbLayerTableRecord
  2
L
 70
     0
 62
     7
  6
CONTINUOUS
  0
LAYER
  5
45
330
2
100
AcDbSymbolTableRecord
100
AcDbLayerTableRecord
  2
DEFPOINTS
 70
     0
 62
     7
  6
CONTINUOUS
  0
LAYER
  5
88
330
2
100
AcDbSymbolTableRecord
100
AcDbLayerTableRecord
  2
TX
 70
     0
 62
   150
  6
CONTINUOUS
  0
ENDTAB
  0
TABLE
  2
STYLE
  5
3
330
0
100
AcDbSymbolTable
 70
     3
  0
STYLE
  5
11
330
3
100
AcDbSymbolTableRecord
100
AcDbTextStyleTableRecord
  2
STANDARD
 70
     0
 40
0.0
 41
1.0
 50
0.0
 71
     0
 42
0.2
  3
txt
  4

  0
STYLE
  5
35
330
3
100
AcDbSymbolTableRecord
100
AcDbTextStyleTableRecord
  2
REG
 70
     0
 40
0.0
 41
1.0
 50
0.0
 71
     0
 42
0.09375
  3
E:\R13\com\fonts\ARCHITXT.SHX
  4

  0
STYLE
  5
36
330
3
100
AcDbSymbolTableRecord
100
AcDbTextStyleTableRecord
  2
DIMTXT
 70
     0
 40
0.0
 41
1.0
 50
0.0
 71
     0
 42
1.125
  3
archt.shx
  4

  0
ENDTAB
  0
TABLE
  2
VIEW
  5
6
330
0
100
AcDbSymbolTable
 70
     0
  0
ENDTAB
  0
TABLE
  2
UCS
  5
7
330
0
100
AcDbSymbolTable
 70
     0
  0
ENDTAB
  0
TABLE
  2
APPID
  5
9
330
0
100
AcDbSymbolTable
 70
     1
  0
APPID
  5
12
330
9
100
AcDbSymbolTableRecord
100
AcDbRegAppTableRecord
  2
ACAD
 70
     0
  0
ENDTAB
  0
TABLE
  2
DIMSTYLE
  5
A
330
0
100
AcDbSymbolTable
 70
     6
  0
DIMSTYLE
105
27
102
{ACAD_REACTORS
330
C1
330
CF
102
}
330
A
100
AcDbSymbolTableRecord
100
AcDbDimStyleTableRecord
  2
STANDARD
 70
     0
  3

  4

  5

  6

  7

 40
1.0
 41
0.18
 42
0.0625
 43
0.38
 44
0.18
 45
0.0
 46
0.0
 47
0.0
 48
0.0
140
0.18
141
0.09
142
0.0
143
25.4
144
1.0
145
0.0
146
1.0
147
0.09
 71
     0
 72
     0
 73
     1
 74
     1
 75
     0
 76
     0
 77
     0
 78
     0
170
     0
171
     2
172
     0
173
     0
174
     0
175
     0
176
     0
177
     0
178
     0
270
     2
271
     2
272
     2
273
     2
274
     2
340
11
275
     0
280
     0
281
     0
282
     0
283
     1
284
     0
285
     0
286
     0
287
     3
288
     0
  0
DIMSTYLE
105
37
330
A
100
AcDbSymbolTableRecord
100
AcDbDimStyleTableRecord
  2
1
 70
     0
  3

  4

  5

  6

  7

 40
1.0
 41
1.125
 42
0.5
 43
0.375
 44
1.19921875
 45
0.0
 46
0.5
 47
0.0
 48
0.0
140
1.125
141
0.125
142
0.0
143
25.4
144
1.0
145
0.0
146
0.8
147
0.5625
 71
     0
 72
     0
 73
     0
 74
     0
 75
     0
 76
     0
 77
     1
 78
     3
170
     0
171
     2
172
     1
173
     0
174
     1
175
     0
176
   133
177
   133
178
   150
270
     2
271
     3
272
     3
273
     2
274
     2
340
36
275
     0
280
     0
281
     0
282
     0
283
     1
284
     0
285
     0
286
     0
287
     4
288
     0
  0
DIMSTYLE
105
38
330
A
100
AcDbSymbolTableRecord
100
AcDbDimStyleTableRecord
  2
1$2
 70
     0
  3

  4

  5
DOTSMALL
  6

  7

 40
1.0
 41
1.5
 42
0.5
 43
0.375
 44
1.19921875
 45
0.0
 46
0.5
 47
0.0
 48
0.0
140
0.75
141
0.125
142
0.0
143
25.4
144
1.0
145
0.0
146
0.8
147
0.5625
 71
     0
 72
     0
 73
     0
 74
     0
 75
     0
 76
     0
 77
     1
 78
     3
170
     0
171
     2
172
     1
173
     0
174
     1
175
     0
176
   133
177
   133
178
   150
270
     2
271
     3
272
     3
273
     2
274
     2
340
36
275
     0
280
     0
281
     0
282
     0
283
     1
284
     0
285
     0
286
     0
287
     4
288
     0
  0
DIMSTYLE
105
39
330
A
100
AcDbSymbolTableRecord
100
AcDbDimStyleTableRecord
  2
1$4
 70
     0
  3

  4

  5

  6

  7
DOTSMALL
 40
1.0
 41
1.5
 42
0.5
 43
0.375
 44
1.19921875
 45
0.0
 46
0.5
 47
0.0
 48
0.0
140
0.75
141
0.125
142
0.0
143
25.4
144
1.0
145
0.0
146
0.8
147
0.5625
 71
     0
 72
     0
 73
     0
 74
     0
 75
     0
 76
     0
 77
     1
 78
     3
170
     0
171
     2
172
     1
173
     1
174
     1
175
     0
176
   133
177
   133
178
   150
270
     2
271
     3
272
     3
273
     2
274
     2
340
36
275
     0
280
     0
281
     0
282
     0
283
     1
284
     0
285
     0
286
     0
287
     4
288
     0
  0
DIMSTYLE
105
3A
330
A
100
AcDbSymbolTableRecord
100
AcDbDimStyleTableRecord
  2
1$3
 70
     0
  3

  4

  5
DOTSMALL
  6

  7

 40
1.0
 41
1.5
 42
0.5
 43
0.375
 44
1.19921875
 45
0.0
 46
0.5
 47
0.0
 48
0.0
140
0.75
141
0.125
142
0.0
143
25.4
144
1.0
145
0.0
146
0.8
147
0.5625
 71
     0
 72
     0
 73
     0
 74
     0
 75
     0
 76
     0
 77
     1
 78
     3
170
     0
171
     2
172
     1
173
     0
174
     1
175
     0
176
   133
177
   133
178
   150
270
     2
271
     3
272
     3
273
     2
274
     2
340
36
275
     0
280
     0
281
     0
282
     0
283
     1
284
     0
285
     0
286
     0
287
     4
288
     0
  0
DIMSTYLE
105
3B
330
A
100
AcDbSymbolTableRecord
100
AcDbDimStyleTableRecord
  2
1$7
 70
     0
  3

  4

  5

  6

  7

 40
1.0
 41
1.0
 42
0.5
 43
0.375
 44
1.19921875
 45
0.0
 46
0.5
 47
0.0
 48
0.0
140
0.75
141
0.125
142
0.0
143
25.4
144
1.0
145
0.0
146
0.8
147
0.5625
 71
     0
 72
     0
 73
     0
 74
     0
 75
     0
 76
     0
 77
     1
 78
     3
170
     0
171
     2
172
     1
173
     0
174
     1
175
     0
176
   133
177
   133
178
   150
270
     2
271
     3
272
     3
273
     2
274
     2
340
36
275
     0
280
     0
281
     0
282
     0
283
     1
284
     0
285
     0
286
     0
287
     4
288
     0
  0
ENDTAB
  0
TABLE
  2
BLOCK_RECORD
  5
1
330
0
100
AcDbSymbolTable
 70
     5
  0
BLOCK_RECORD
  5
1F
102
{ACAD_XDICTIONARY
360
283
102
}
330
1
100
AcDbSymbolTableRecord
100
AcDbBlockTableRecord
  2
*MODEL_SPACE
  0
BLOCK_RECORD
  5
1B
102
{ACAD_XDICTIONARY
360
281
102
}
330
1
100
AcDbSymbolTableRecord
100
AcDbBlockTableRecord
  2
*PAPER_SPACE
  0
BLOCK_RECORD
  5
2B
330
1
100
AcDbSymbolTableRecord
100
AcDbBlockTableRecord
  2
_DOT
  0
BLOCK_RECORD
  5
30
330
1
100
AcDbSymbolTableRecord
100
AcDbBlockTableRecord
  2
_DOTSMALL
  0
BLOCK_RECORD
  5
C2
330
1
100
AcDbSymbolTableRecord
100
AcDbBlockTableRecord
  2
*D3
  0
BLOCK_RECORD
  5
D0
330
1
100
AcDbSymbolTableRecord
100
AcDbBlockTableRecord
  2
*D4
  0
ENDTAB
  0
ENDSEC
  0
SECTION
  2
BLOCKS
  0
BLOCK
  5
20
330
1F
100
AcDbEntity
  8
0
100
AcDbBlockBegin
  2
*MODEL_SPACE
 70
     0
 10
0.0
 20
0.0
 30
0.0
  3
*MODEL_SPACE
  1

  0
ENDBLK
  5
21
330
1F
100
AcDbEntity
  8
0
100
AcDbBlockEnd
  0
BLOCK
  5
1C
330
1B
100
AcDbEntity
 67
     1
  8
0
100
AcDbBlockBegin
  2
*PAPER_SPACE
 70
     0
 10
0.0
 20
0.0
 30
0.0
  3
*PAPER_SPACE
  1

  0
ENDBLK
  5
1D
330
1B
100
AcDbEntity
 67
     1
  8
0
100
AcDbBlockEnd
  0
BLOCK
  5
2E
330
2B
100
AcDbEntity
  8
0
100
AcDbBlockBegin
  2
_DOT
 70
     0
 10
0.0
 20
0.0
 30
0.0
  3
_DOT
  1

  0
LWPOLYLINE
  5
2C
330
2B
100
AcDbEntity
  8
L
 62
     0
100
AcDbPolyline
 90
        2
 70
     1
 43
0.5
 10
-0.25
 20
0.0
 42
1.0
 10
0.25
 20
0.0
 42
1.0
  0
LINE
  5
2D
330
2B
100
AcDbEntity
  8
L
 62
     0
100
AcDbLine
 10
-0.5
 20
0.0
 30
0.0
 11
-1.0
 21
0.0
 31
0.0
  0
ENDBLK
  5
2F
330
2B
100
AcDbEntity
  8
0
100
AcDbBlockEnd
  0
BLOCK
  5
32
330
30
100
AcDbEntity
  8
0
 48
0.116666
100
AcDbBlockBegin
  2
_DOTSMALL
 70
     0
 10
0.0
 20
0.0
 30
0.0
  3
_DOTSMALL
  1

  0
LWPOLYLINE
  5
31
330
30
100
AcDbEntity
  8
0
  6
BYBLOCK
 62
     0
100
AcDbPolyline
 90
        2
 70
     1
 43
0.5
 10
-0.0625
 20
0.0
 42
1.0
 10
0.0625
 20
0.0
 42
1.0
  0
ENDBLK
  5
33
330
30
100
AcDbEntity
  8
0
 48
0.116666
100
AcDbBlockEnd
  0
BLOCK
  5
CD
330
C2
100
AcDbEntity
  8
0
100
AcDbBlockBegin
  2
*D3
 70
     1
 10
0.0
 20
0.0
 30
0.0
  3
*D3
  1

  0
LINE
  5
C3
330
C2
100
AcDbEntity
  8
0
 62
     0
100
AcDbLine
 10
5.251427390305523
 20
5.689807410363862
 30
0.0
 11
5.251427390305523
 21
8.095891177346473
 31
0.0
  0
LINE
  5
C4
330
C2
100
AcDbEntity
  8
0
 62
     0
100
AcDbLine
 10
8.506427390305642
 20
7.431307410363835
 30
0.0
 11
8.506427390305642
 21
8.095891177346473
 31
0.0
  0
LINE
  5
C5
330
C2
100
AcDbEntity
  8
0
 62
     0
100
AcDbLine
 10
5.431427390305523
 20
7.915891177346473
 30
0.0
 11
6.518927390305582
 21
7.915891177346473
 31
0.0
  0
LINE
  5
C6
330
C2
100
AcDbEntity
  8
0
 62
     0
100
AcDbLine
 10
8.326427390305642
 20
7.915891177346473
 30
0.0
 11
7.238927390305582
 21
7.915891177346473
 31
0.0
  0
SOLID
  5
C7
330
C2
100
AcDbEntity
  8
0
 62
     0
100
AcDbTrace
 10
5.431427390305523
 20
7.945891177346473
 30
0.0
 11
5.431427390305523
 21
7.885891177346473
 31
0.0
 12
5.251427390305523
 22
7.915891177346473
 32
0.0
 13
5.251427390305523
 23
7.915891177346473
 33
0.0
  0
SOLID
  5
C8
330
C2
100
AcDbEntity
  8
0
 62
     0
100
AcDbTrace
 10
8.326427390305642
 20
7.945891177346473
 30
0.0
 11
8.326427390305642
 21
7.885891177346473
 31
0.0
 12
8.506427390305642
 22
7.915891177346473
 32
0.0
 13
8.506427390305642
 23
7.915891177346473
 33
0.0
  0
MTEXT
  5
C9
330
C2
100
AcDbEntity
  8
0
 62
     0
100
AcDbMText
 10
6.878927390305582
 20
7.915891177346473
 30
0.0
 40
0.18
 41
0.0
 71
     5
 72
     1
  1
\A1;3.26
1001
ACAD
1000
MTEXTBEGIN
1070
    73
1070
     1
1070
    44
1040
1.0
1070
    74
1070
     0
1000
MTEXTEND
  0
POINT
  5
CA
330
C2
100
AcDbEntity
  8
DEFPOINTS
 62
     0
100
AcDbPoint
 10
5.251427390305523
 20
5.627307410363862
 30
0.0
  0
POINT
  5
CB
330
C2
100
AcDbEntity
  8
DEFPOINTS
 62
     0
100
AcDbPoint
 10
8.506427390305642
 20
7.368807410363835
 30
0.0
  0
POINT
  5
CC
330
C2
100
AcDbEntity
  8
DEFPOINTS
 62
     0
100
AcDbPoint
 10
8.506427390305642
 20
7.915891177346473
 30
0.0
  0
ENDBLK
  5
CE
330
C2
100
AcDbEntity
  8
0
100
AcDbBlockEnd
  0
BLOCK
  5
DB
330
D0
100
AcDbEntity
  8
0
100
AcDbBlockBegin
  2
*D4
 70
     1
 10
0.0
 20
0.0
 30
0.0
  3
*D4
  1

  0
LINE
  5
D1
330
D0
100
AcDbEntity
  8
0
 62
     0
100
AcDbLine
 10
5.647927390305593
 20
7.399807410363955
 30
0.0
 11
4.453841703391479
 21
7.399807410363955
 31
0.0
  0
LINE
  5
D2
330
D0
100
AcDbEntity
  8
0
 62
     0
100
AcDbLine
 10
5.654927390305655
 20
5.264807410363907
 30
0.0
 11
4.453841703391479
 21
5.264807410363907
 31
0.0
  0
LINE
  5
D3
330
D0
100
AcDbEntity
  8
0
 62
     0
100
AcDbLine
 10
4.633841703391479
 20
7.219807410363955
 30
0.0
 11
4.633841703391479
 21
6.512307410363931
 31
0.0
  0
LINE
  5
D4
330
D0
100
AcDbEntity
  8
0
 62
     0
100
AcDbLine
 10
4.633841703391478
 20
5.444807410363907
 30
0.0
 11
4.633841703391479
 21
6.152307410363931
 31
0.0
  0
SOLID
  5
D5
330
D0
100
AcDbEntity
  8
0
 62
     0
100
AcDbTrace
 10
4.603841703391479
 20
7.219807410363955
 30
0.0
 11
4.663841703391479
 21
7.219807410363955
 31
0.0
 12
4.633841703391479
 22
7.399807410363955
 32
0.0
 13
4.633841703391479
 23
7.399807410363955
 33
0.0
  0
SOLID
  5
D6
330
D0
100
AcDbEntity
  8
0
 62
     0
100
AcDbTrace
 10
4.603841703391478
 20
5.444807410363907
 30
0.0
 11
4.663841703391478
 21
5.444807410363907
 31
0.0
 12
4.633841703391478
 22
5.264807410363907
 32
0.0
 13
4.633841703391478
 23
5.264807410363907
 33
0.0
  0
MTEXT
  5
D7
330
D0
100
AcDbEntity
  8
0
 62
     0
100
AcDbMText
 10
4.633841703391477
 20
6.332307410363932
 30
0.0
 40
0.18
 41
0.0
 71
     5
 72
     1
  1
\A1;2.14
1001
ACAD
1000
MTEXTBEGIN
1070
    73
1070
     1
1070
    44
1040
1.0
1070
    74
1070
     0
1000
MTEXTEND
  0
POINT
  5
D8
330
D0
100
AcDbEntity
  8
DEFPOINTS
 62
     0
100
AcDbPoint
 10
5.710427390305593
 20
7.399807410363955
 30
0.0
  0
POINT
  5
D9
330
D0
100
AcDbEntity
  8
DEFPOINTS
 62
     0
100
AcDbPoint
 10
5.717427390305655
 20
5.264807410363907
 30
0.0
  0
POINT
  5
DA
330
D0
100
AcDbEntity
  8
DEFPOINTS
 62
     0
100
AcDbPoint
 10
4.633841703391478
 20
5.264807410363907
 30
0.0
  0
ENDBLK
  5
DC
330
D0
100
AcDbEntity
  8
0
100
AcDbBlockEnd
  0
ENDSEC
  0
SECTION
  2
ENTITIES
  0
LWPOLYLINE
  5
BD
330
1F
100
AcDbEntity
  8
L
 62
     5
 48
0.116666
100
AcDbPolyline
 90
        2
 70
     0
 43
0.028125
 10
4.766079383434597
 20
4.195961855413422
 10
7.638395116193176
 20
4.195961855413422
  0
TEXT
  5
BE
330
1F
100
AcDbEntity
  8
L
 62
     3
 48
0.116666
100
AcDbText
 10
4.859815226115696
 20
4.289697698094407
 30
0.0
 40
0.140625
  1
2" RETRO FRAME #2112
  7
REG
100
AcDbText
  0
TEXT
  5
BF
330
1F
100
AcDbEntity
  8
TX
 48
0.116666
100
AcDbText
 10
4.859815226115696
 20
4.008476012732437
 30
0.0
 40
0.09375
  1
SCALE : FULL SIZE
  7
REG
 11
4.859815226115696
 21
4.102226012732437
 31
0.0
100
AcDbText
 73
     3
  0
DIMENSION
  5
C1
330
1F
100
AcDbEntity
  8
0
100
AcDbDimension
  2
*D3
 10
8.506427390305642
 20
7.915891177346473
 30
0.0
 11
6.878927390305582
 21
7.915891177346473
 31
0.0
 70
    32
  3
STANDARD
100
AcDbAlignedDimension
 13
5.251427390305523
 23
5.627307410363862
 33
0.0
 14
8.506427390305642
 24
7.368807410363835
 34
0.0
100
AcDbRotatedDimension
  0
DIMENSION
  5
CF
330
1F
100
AcDbEntity
  8
0
100
AcDbDimension
  2
*D4
 10
4.633841703391478
 20
5.264807410363907
 30
0.0
 11
4.633841703391477
 21
6.332307410363932
 31
0.0
 70
    32
  3
STANDARD
100
AcDbAlignedDimension
 13
5.710427390305593
 23
7.399807410363955
 33
0.0
 14
5.717427390305655
 24
5.264807410363907
 34
0.0
 50
90.0
100
AcDbRotatedDimension
  0
LWPOLYLINE
  5
17B
330
1F
100
AcDbEntity
  8
L
 62
     5
100
AcDbPolyline
 90
        8
 70
     1
 43
0.0
 10
5.813427390305658
 20
5.659807410363832
 42
-0.4142135623730951
 10
5.751427390305533
 20
5.721807410363901
 10
5.75142739030559
 20
6.087807410363886
 42
-0.4142135623730951
 10
5.813427390305658
 20
6.149807410363898
 10
6.934831660238213
 20
6.149807410363876
 42
-0.2002454734765971
 10
6.978896524950467
 20
6.13142263359952
 10
7.393430589510865
 20
5.712615021981625
 42
-0.6663258010054213
 10
7.371398157154825
 20
5.659807410363889
  0
LWPOLYLINE
  5
1F3
330
1F
100
AcDbEntity
  8
L
 62
     5
100
AcDbPolyline
 90
       15
 70
     1
 43
0.0
 10
7.06842739030554
 20
7.0848074103639
 10
7.06842739030554
 20
7.084807410363843
 10
7.429427390305644
 20
7.0848074103639
 42
-0.414213562373632
 10
7.491427390305599
 20
7.022807410363832
 10
7.491427390305542
 20
7.022807410363832
 10
7.491427390305542
 20
5.781393645918221
 10
7.491427390305332
 20
5.781393645918221
 42
-0.6700346519480839
 10
7.438394957949356
 20
5.759586034300352
 10
7.438394957949466
 20
5.759586034300461
 10
7.024362525593286
 20
6.177886842247851
 10
7.024362525593197
 20
6.177886842247763
 42
-0.1975799410304455
 10
7.006427390305547
 20
6.221502065483484
 10
7.006427390305642
 20
6.221502065483484
 10
7.006427390305642
 20
7.022807410363832
 10
7.006427390305585
 20
7.022807410363832
 42
-0.4142135623736322
  0
LWPOLYLINE
  5
208
330
1F
100
AcDbEntity
  8
L
 62
     5
100
AcDbPolyline
 90
      203
 70
     1
 43
0.0
 10
8.506427390305699
 20
7.368807410363835
 42
0.4142135623741692
 10
8.475427390305693
 20
7.399807410363955
 10
8.475427390305693
 20
7.399807410363898
 10
8.316427390305587
 20
7.399807410363898
 10
8.306427390305596
 20
7.389807410363907
 10
8.296427390305606
 20
7.399807410363898
 10
7.522427390305491
 20
7.399807410363898
 10
7.522427390305491
 20
7.399807410363955
 42
0.4142135623741692
 10
7.491427390305485
 20
7.368807410363835
 10
7.491427390305542
 20
7.368807410363835
 10
7.491427390305542
 20
7.149807410363898
 10
6.941427390305587
 20
7.149807410363898
 10
6.941427390305587
 20
7.399807410363898
 10
6.791427390305496
 20
7.399807410363898
 10
6.791427390305496
 20
7.384807410363912
 10
6.701427390305578
 20
7.384807410363912
 10
6.691427390305587
 20
7.374807410363921
 10
6.681427390305596
 20
7.384807410363912
 10
6.516427390305633
 20
7.384807410363912
 10
6.516427390305785
 20
7.384807410364003
 42
0.2629371813524013
 10
6.489875612580188
 20
7.399807410363803
 10
6.489875612580188
 20
7.399807410363784
 10
6.482427390305527
 20
7.399807410363898
 10
6.482427390305527
 20
7.399807410363955
 42
0.4142135623741692
 10
6.451427390305521
 20
7.368807410363835
 10
6.451427390305578
 20
7.368807410363835
 10
6.451427390305578
 20
7.280307410363882
 10
6.451427390305521
 20
7.280307410363882
 42
0.4142135623730951
 10
6.482427390305527
 20
7.249307410363876
 10
6.482427390305527
 20
7.249307410363819
 10
6.485427390305456
 20
7.249307410363933
 10
6.485427390305456
 20
7.249307410363953
 42
0.4142135623741692
 10
6.516427390305726
 20
7.280307410363882
 10
6.516427390305633
 20
7.280307410363882
 10
6.516427390305405
 20
7.299807410363875
 10
6.516427390305519
 20
7.299807410363875
 42
-1.000000000000003
 10
6.578427390305645
 20
7.299807410363875
 10
6.578427390305531
 20
7.299807410363875
 10
6.814427390305407
 20
7.299807410363875
 10
6.814427390305294
 20
7.299807410363875
 42
-1.000000000000003
 10
6.876427390305419
 20
7.299807410363875
 10
6.876427390305533
 20
7.299807410363875
 10
6.876427390305533
 20
6.969807410363834
 10
5.741427390305542
 20
6.969807410363834
 10
5.741427390305542
 20
7.249307410363933
 10
5.825427390305602
 20
7.249307410363933
 42
0.4142135623730951
 10
5.856427390305551
 20
7.280307410363882
 10
5.856427390305551
 20
7.283307410363924
 42
0.4142135623730951
 10
5.825427390305602
 20
7.314307410363873
 10
5.772427390305718
 20
7.314307410363873
 42
-0.4142135623741692
 10
5.741427390305428
 20
7.345307410363822
 10
5.741427390305542
 20
7.345307410363822
 10
5.741427390305542
 20
7.368807410363835
 10
5.741427390305599
 20
7.368807410363835
 42
0.4142135623741692
 10
5.710427390305593
 20
7.399807410363955
 10
5.710427390305593
 20
7.399807410363898
 10
5.707427390305664
 20
7.399807410363898
 10
5.707427390305664
 20
7.399807410363955
 42
0.4142135623741692
 10
5.676427390305658
 20
7.368807410363835
 10
5.676427390305715
 20
7.368807410363835
 10
5.676427390305715
 20
7.031807410363846
 10
5.676427390305658
 20
7.031807410363846
 42
-0.4142135623730951
 10
5.614427390305589
 20
6.969807410363777
 10
5.614427390305589
 20
6.969807410363834
 10
5.362427390305636
 20
6.969807410363834
 42
0.4142135623730951
 10
5.331427390305687
 20
6.938807410363885
 10
5.331427390305687
 20
6.903417407587646
 10
5.331427390305867
 20
6.903417407587646
 42
0.1186395103066539
 10
5.333069868070646
 20
6.896592702484974
 10
5.333069868070477
 20
6.896592702484888
 10
5.358741372517496
 20
6.846347646281621
 10
5.358741372517545
 20
6.846347646281647
 42
0.7878860719460303
 10
5.381427390305752
 20
6.851807410363896
 10
5.381427390305642
 20
6.851807410363896
 10
5.381427390305642
 20
6.899807410363898
 10
5.421427390305606
 20
6.899807410363898
 10
5.448741372517641
 20
6.846347646281621
 10
5.448741372517612
 20
6.846347646281606
 42
0.7878860719425373
 10
5.471427390305557
 20
6.851807410363896
 10
5.47142739030556
 20
6.851807410363896
 10
5.47142739030556
 20
6.899807410363898
 10
5.511427390305524
 20
6.899807410363898
 10
5.538741372517559
 20
6.846347646281621
 10
5.538741372517609
 20
6.846347646281647
 42
0.7878860719460303
 10
5.561427390305816
 20
6.851807410363896
 10
5.561427390305706
 20
6.851807410363896
 10
5.561427390305706
 20
6.899807410363898
 10
5.601427390305669
 20
6.899807410363898
 10
5.628741372517477
 20
6.846347646281621
 10
5.628741372517527
 20
6.846347646281647
 42
0.7878860719460303
 10
5.651427390305734
 20
6.851807410363896
 10
5.651427390305624
 20
6.851807410363896
 10
5.651427390305624
 20
6.899807410363898
 10
5.691427390305587
 20
6.899807410363898
 10
5.718741372517623
 20
6.846347646281621
 10
5.718741372517594
 20
6.846347646281606
 42
0.7878860719425373
 10
5.741427390305538
 20
6.851807410363896
 10
5.741427390305542
 20
6.851807410363896
 10
5.741427390305542
 20
6.899807410363898
 10
5.781427390305506
 20
6.899807410363898
 10
5.808741372517541
 20
6.846347646281621
 10
5.808741372517591
 20
6.846347646281647
 42
0.7878860719460303
 10
5.831427390305798
 20
6.851807410363896
 10
5.831427390305687
 20
6.851807410363896
 10
5.831427390305687
 20
6.899807410363898
 10
5.871427390305651
 20
6.899807410363898
 10
5.898741372517459
 20
6.846347646281621
 10
5.898741372517509
 20
6.846347646281647
 42
0.7878860719460303
 10
5.921427390305716
 20
6.851807410363896
 10
5.921427390305606
 20
6.851807410363896
 10
5.921427390305606
 20
6.899807410363898
 10
5.961427390305569
 20
6.899807410363898
 10
5.988741372517605
 20
6.846347646281621
 10
5.988741372517575
 20
6.846347646281606
 42
0.7878860719425373
 10
6.01142739030552
 20
6.851807410363896
 10
6.011427390305524
 20
6.851807410363896
 10
6.011427390305524
 20
6.899807410363898
 10
6.051427390305715
 20
6.899807410363898
 10
6.078741372517523
 20
6.846347646281621
 10
6.078741372517573
 20
6.846347646281647
 42
0.7878860719460303
 10
6.101427390305779
 20
6.851807410363896
 10
6.101427390305669
 20
6.851807410363896
 10
6.101427390305669
 20
6.899807410363898
 10
6.141427390305633
 20
6.899807410363898
 10
6.168741372517441
 20
6.846347646281621
 10
6.168741372517491
 20
6.846347646281647
 42
0.7878860719460303
 10
6.191427390305697
 20
6.851807410363896
 10
6.191427390305587
 20
6.851807410363896
 10
6.191427390305587
 20
6.899807410363898
 10
6.912899492196455
 20
6.842089642212606
 10
6.912899492196459
 20
6.842089642212657
 42
-0.391020550423214
 10
6.941427390305601
 20
6.811188368577965
 10
6.941427390305587
 20
6.811188368577965
 10
6.941427390305587
 20
6.276807410363851
 10
6.941427390305644
 20
6.276807410363851
 42
-0.4142135623730951
 10
6.879427390305689
 20
6.214807410363896
 10
6.879427390305689
 20
6.214807410363839
 10
5.629427390305689
 20
6.214807410363839
 10
5.629427390305689
 20
6.214807410363875
 42
0.3602925813368407
 10
5.541005430498157
 20
6.141587071380868
 10
5.541005430498266
 20
6.141587071380848
 42
0.4702719307882037
 10
5.571461883320861
 20
6.104807410363928
 10
5.571461883320861
 20
6.104807410363825
 10
5.573427390305649
 20
6.104807410363825
 10
5.573427390305649
 20
6.104807410363826
 42
0.4047950178670443
 10
5.604411257075033
 20
6.134807410363914
 10
5.604411257074934
 20
6.134807410363918
 42
-0.4047950178691108
 10
5.635395123844826
 20
6.16480741036383
 10
5.635395123844826
 20
6.164807410363884
 10
5.655427390305529
 20
6.164807410363884
 10
5.655427390305529
 20
6.164807410363827
 42
-0.4142135623741692
 10
5.686427390305876
 20
6.133807410363822
 10
5.686427390305706
 20
6.133807410363822
 10
5.686427390305706
 20
5.683307410363902
 10
5.686427390305876
 20
5.683307410363902
 42
-0.4142135623741692
 10
5.655427390305529
 20
5.652307410363896
 10
5.655427390305529
 20
5.652307410363839
 10
5.304693949962992
 20
5.652307410363839
 10
5.30469394996297
 20
5.652307410363814
 42
2.130662386301987
 10
5.30469394996297
 20
5.602307410363909
 10
5.304693949962992
 20
5.602307410363884
 10
5.655427390305529
 20
5.602307410363884
 10
5.655427390305529
 20
5.602307410363827
 42
-0.4142135623741692
 10
5.686427390305876
 20
5.571307410363822
 10
5.686427390305706
 20
5.571307410363822
 10
5.686427390305706
 20
5.295807410363856
 42
0.4142135623730951
 10
5.717427390305655
 20
5.264807410363907
 10
5.871427390305651
 20
5.264807410363907
 10
5.881427390305642
 20
5.274807410363898
 10
5.891427390305633
 20
5.264807410363907
 10
5.951427390305578
 20
5.264807410363907
 10
5.951427390305489
 20
5.26480741036389
 42
0.3605676559238828
 10
5.890503257156122
 20
5.315307410363769
 10
5.890503257156122
 20
5.31530741036385
 10
5.751427390305533
 20
5.31530741036385
 10
5.751427390305533
 20
5.594807410363834
 10
6.886427390305524
 20
5.594807410363834
 10
6.886427390305524
 20
5.31530741036385
 10
6.761427390305524
 20
5.31530741036385
 10
6.761427390305704
 20
5.315307410363883
 42
0.3605676559238647
 10
6.822351523454752
 20
5.264807410363895
 10
6.822351523454752
 20
5.264807410363907
 10
6.920427390305629
 20
5.264807410363907
 42
0.4142135623730951
 10
6.951427390305578
 20
5.295807410363856
 10
6.951427390305578
 20
5.563807410363885
 42
-0.4142135623730951
 10
6.982427390305527
 20
5.594807410363834
 10
7.494427390305698
 20
5.594807410363834
 10
7.494427390305698
 20
5.594807410363777
 42
0.414213562373632
 10
7.556427390305653
 20
5.656807410363846
 10
7.556427390305596
 20
5.656807410363846
 10
7.556427390305596
 20
7.303807410363894
 42
-0.4142135623730951
 10
7.587427390305546
 20
7.334807410363843
 10
7.766427390305633
 20
7.334807410363843
 10
7.766427390305633
 20
7.314807410363862
 10
7.806427390305596
 20
7.314807410363862
 10
7.806427390305596
 20
7.334807410363843
 10
8.09642739030556
 20
7.334807410363843
 10
8.09642739030556
 20
7.314807410363862
 10
8.136427390305524
 20
7.314807410363862
 10
8.136427390305524
 20
7.334807410363843
 10
8.466427390305678
 20
7.334807410363843
 10
8.466427390305678
 20
7.314807410363862
 10
8.506427390305642
 20
7.314807410363862
  0
ENDSEC
  0
SECTION
  2
OBJECTS
  0
DICTIONARY
  5
C
330
0
100
AcDbDictionary
  3
ACAD_GROUP
350
D
  3
ACAD_LAYOUT
350
1A
  3
ACAD_MLINESTYLE
350
17
  3
ACAD_PLOTSETTINGS
350
19
  3
ACAD_PLOTSTYLENAME
350
E
  3
ACDBHEADERROUNDTRIPXREC
350
261
  0
DICTIONARY
  5
283
330
1F
100
AcDbDictionary
280
     1
  3
ACAD_LAYOUTSELFREF
360
284
  0
DICTIONARY
  5
281
330
1B
100
AcDbDictionary
280
     1
  3
ACAD_LAYOUTSELFREF
360
282
  0
DICTIONARY
  5
D
102
{ACAD_REACTORS
330
C
102
}
330
C
100
AcDbDictionary
  0
DICTIONARY
  5
1A
102
{ACAD_REACTORS
330
C
102
}
330
C
100
AcDbDictionary
  0
DICTIONARY
  5
17
102
{ACAD_REACTORS
330
C
102
}
330
C
100
AcDbDictionary
  3
STANDARD
350
18
  0
DICTIONARY
  5
19
102
{ACAD_REACTORS
330
C
102
}
330
C
100
AcDbDictionary
  0
ACDBDICTIONARYWDFLT
  5
E
102
{ACAD_REACTORS
330
C
102
}
330
C
100
AcDbDictionary
281
     1
  3
Normal
350
F
100
AcDbDictionaryWithDefault
340
F
  0
DICTIONARY
  5
261
102
{ACAD_REACTORS
330
C
102
}
330
C
100
AcDbDictionary
  3
CEPSNTYPE
350
26B
  3
FINGERPRINTGUID
350
26C
  3
HYPERLINKBASE
350
264
  3
INSUNITS
350
26A
  3
LAYOUTDICT
350
266
  3
LWETCUNION
350
269
  3
PLOTSETDICT
350
267
  3
PLOTSTYLNAMDICT
350
268
  3
PSVPSCALE
350
26E
  3
PUCSBASE
350
271
  3
PUCSORGBACK
350
277
  3
PUCSORGBOTTOM
350
273
  3
PUCSORGFRONT
350
276
  3
PUCSORGLEFT
350
274
  3
PUCSORGRIGHT
350
275
  3
PUCSORGTOP
350
272
  3
PUCSORTHOREF
350
26F
  3
PUCSORTHOVIEW
350
270
  3
STYLESHEET
350
265
  3
TSTACKALIGN
350
262
  3
TSTACKSIZE
350
263
  3
UCSBASE
350
27A
  3
UCSORGBACK
350
280
  3
UCSORGBOTTOM
350
27C
  3
UCSORGFRONT
350
27F
  3
UCSORGLEFT
350
27D
  3
UCSORGRIGHT
350
27E
  3
UCSORGTOP
350
27B
  3
UCSORTHOREF
350
278
  3
UCSORTHOVIEW
350
279
  3
VERSIONGUID
350
26D
  0
XRECORD
  5
284
102
{ACAD_REACTORS
330
283
102
}
330
283
100
AcDbXrecord
340
1F
  0
XRECORD
  5
282
102
{ACAD_REACTORS
330
281
102
}
330
281
100
AcDbXrecord
340
1B
  0
MLINESTYLE
  5
18
102
{ACAD_REACTORS
330
17
102
}
330
17
100
AcDbMlineStyle
  2
STANDARD
 70
     0
  3

 62
   256
 51
90.0
 52
90.0
 71
     2
 49
0.5
 62
   256
  6
BYLAYER
 49
-0.5
 62
   256
  6
BYLAYER
  0
ACDBPLACEHOLDER
  5
F
102
{ACAD_REACTORS
330
E
102
}
330
E
100
AcDbPlaceHolder
280
     0
  0
XRECORD
  5
26B
102
{ACAD_REACTORS
330
261
102
}
330
261
100
AcDbXrecord
 90
        0
  0
XRECORD
  5
26C
102
{ACAD_REACTORS
330
261
102
}
330
261
100
AcDbXrecord
  1
{DC175E3D-AE85-11D5-9A93-0040C77E826B}
  0
XRECORD
  5
264
102
{ACAD_REACTORS
330
261
102
}
330
261
100
AcDbXrecord
  1

  0
XRECORD
  5
26A
102
{ACAD_REACTORS
330
261
102
}
330
261
100
AcDbXrecord
 90
        1
  0
XRECORD
  5
266
102
{ACAD_REACTORS
330
261
102
}
330
261
100
AcDbXrecord
340
1A
  0
XRECORD
  5
269
102
{ACAD_REACTORS
330
261
102
}
330
261
100
AcDbXrecord
 90
    10781
  0
XRECORD
  5
267
102
{ACAD_REACTORS
330
261
102
}
330
261
100
AcDbXrecord
340
19
  0
XRECORD
  5
268
102
{ACAD_REACTORS
330
261
102
}
330
261
100
AcDbXrecord
340
E
  0
XRECORD
  5
26E
102
{ACAD_REACTORS
330
261
102
}
330
261
100
AcDbXrecord
 40
0.0
  0
XRECORD
  5
271
102
{ACAD_REACTORS
330
261
102
}
330
261
100
AcDbXrecord
340
0
  0
XRECORD
  5
277
102
{ACAD_REACTORS
330
261
102
}
330
261
100
AcDbXrecord
 10
0.0
 20
0.0
 30
0.0
  0
XRECORD
  5
273
102
{ACAD_REACTORS
330
261
102
}
330
261
100
AcDbXrecord
 10
0.0
 20
0.0
 30
0.0
  0
XRECORD
  5
276
102
{ACAD_REACTORS
330
261
102
}
330
261
100
AcDbXrecord
 10
0.0
 20
0.0
 30
0.0
  0
XRECORD
  5
274
102
{ACAD_REACTORS
330
261
102
}
330
261
100
AcDbXrecord
 10
0.0
 20
0.0
 30
0.0
  0
XRECORD
  5
275
102
{ACAD_REACTORS
330
261
102
}
330
261
100
AcDbXrecord
 10
0.0
 20
0.0
 30
0.0
  0
XRECORD
  5
272
102
{ACAD_REACTORS
330
261
102
}
330
261
100
AcDbXrecord
 10
0.0
 20
0.0
 30
0.0
  0
XRECORD
  5
26F
102
{ACAD_REACTORS
330
261
102
}
330
261
100
AcDbXrecord
340
0
  0
XRECORD
  5
270
102
{ACAD_REACTORS
330
261
102
}
330
261
100
AcDbXrecord
 70
     0
  0
XRECORD
  5
265
102
{ACAD_REACTORS
330
261
102
}
330
261
100
AcDbXrecord
  1

  0
XRECORD
  5
262
102
{ACAD_REACTORS
330
261
102
}
330
261
100
AcDbXrecord
 90
        1
  0
XRECORD
  5
263
102
{ACAD_REACTORS
330
261
102
}
330
261
100
AcDbXrecord
 90
       70
  0
XRECORD
  5
27A
102
{ACAD_REACTORS
330
261
102
}
330
261
100
AcDbXrecord
340
0
  0
XRECORD
  5
280
102
{ACAD_REACTORS
330
261
102
}
330
261
100
AcDbXrecord
 10
0.0
 20
0.0
 30
0.0
  0
XRECORD
  5
27C
102
{ACAD_REACTORS
330
261
102
}
330
261
100
AcDbXrecord
 10
0.0
 20
0.0
 30
0.0
  0
XRECORD
  5
27F
102
{ACAD_REACTORS
330
261
102
}
330
261
100
AcDbXrecord
 10
0.0
 20
0.0
 30
0.0
  0
XRECORD
  5
27D
102
{ACAD_REACTORS
330
261
102
}
330
261
100
AcDbXrecord
 10
0.0
 20
0.0
 30
0.0
  0
XRECORD
  5
27E
102
{ACAD_REACTORS
330
261
102
}
330
261
100
AcDbXrecord
 10
0.0
 20
0.0
 30
0.0
  0
XRECORD
  5
27B
102
{ACAD_REACTORS
330
261
102
}
330
261
100
AcDbXrecord
 10
0.0
 20
0.0
 30
0.0
  0
XRECORD
  5
278
102
{ACAD_REACTORS
330
261
102
}
330
261
100
AcDbXrecord
340
0
  0
XRECORD
  5
279
102
{ACAD_REACTORS
330
261
102
}
330
261
100
AcDbXrecord
 70
     0
  0
XRECORD
  5
26D
102
{ACAD_REACTORS
330
261
102
}
330
261
100
AcDbXrecord
  1
{A476C821-D3EE-4291-BCA8-588738DD3FC6}
  0
ENDSEC
  0
EOF
